<?xml version="1.0" standalone="no"?>
<!DOCTYPE svg PUBLIC "-//W3C//DTD SVG 1.1//EN" "http://www.w3.org/Graphics/SVG/1.1/DTD/svg11.dtd" >
<svg xmlns="http://www.w3.org/2000/svg" xmlns:xlink="http://www.w3.org/1999/xlink" version="1.1">
<metadata></metadata>
<defs>
<font id="voice_in_my_headregular" horiz-adv-x="1200" >
<font-face units-per-em="2048" ascent="1638" descent="-410" />
<missing-glyph horiz-adv-x="508" />
<glyph unicode="&#xd;" horiz-adv-x="508" />
<glyph horiz-adv-x="0" />
<glyph horiz-adv-x="0" />
<glyph unicode=" "  horiz-adv-x="508" />
<glyph unicode="&#x09;" horiz-adv-x="508" />
<glyph unicode="&#xa0;" horiz-adv-x="508" />
<glyph unicode="!" horiz-adv-x="500" d="M0 1000v300h400v-900h-300v600h-100zM100 0v300h300v-300h-300z" />
<glyph unicode="&#x22;" horiz-adv-x="800" d="M0 800v500h300v-500h-300zM400 800v500h300v-500h-300z" />
<glyph unicode="#" horiz-adv-x="1400" d="M0 200v300h200v300h-200v300h200v200h300v-200h300v200h300v-200h200v-300h-200v-300h400l-300 -300h-100v-200h-300v200h-300v-400l-300 300v100h-200zM500 500h300v300h-300v-300z" />
<glyph unicode="$" d="M0 0v300h500q41 0 70.5 29.5t29.5 70.5t-29.5 70.5t-70.5 29.5h-100q-166 0 -283 117t-117 283t117 283t283 117v200h300v-200h400v-500h-300v200h-400q-41 0 -70.5 -29.5t-29.5 -70.5t29.5 -70.5t70.5 -29.5h100q166 0 283 -117t117 -283t-117 -283q-39 -39 -83 -65 v-252h-300v200h-400z" />
<glyph unicode="%" d="M-312 0l1300 1300h424l-1300 -1300h-424zM0 1000v300h300v-300h-300zM800 0v300h300v-300h-300z" />
<glyph unicode="&#x26;" d="M0 400q0 143 87 250q-87 107 -87 250q0 166 117 283t283 117h500v-300h-500q-41 0 -70.5 -29.5t-29.5 -70.5t29.5 -70.5t70.5 -29.5h300v100h300v-100h100v-300h-100v-500h-600q-166 0 -283 117t-117 283zM300 400q0 -41 29.5 -70.5t70.5 -29.5h300v200h-300 q-41 0 -70.5 -29.5t-29.5 -70.5z" />
<glyph unicode="'" horiz-adv-x="400" d="M0 800v500h300v-500h-300z" />
<glyph unicode="(" horiz-adv-x="800" d="M0 650q0 269 190.5 459.5t459.5 190.5h50v-300h-50q-145 0 -247.5 -102.5t-102.5 -247.5t102.5 -247.5t247.5 -102.5h50v-300h-50q-269 0 -459.5 190.5t-190.5 459.5z" />
<glyph unicode=")" horiz-adv-x="800" d="M0 0v300h50q145 0 247.5 102.5t102.5 247.5t-102.5 247.5t-247.5 102.5h-50v300h50q269 0 459.5 -190.5t190.5 -459.5t-190.5 -459.5t-459.5 -190.5h-50z" />
<glyph unicode="*" horiz-adv-x="800" d="M0 800v300h200v200h300v-200h200v-300h-200v-200h-300v200h-200z" />
<glyph unicode="+" horiz-adv-x="800" d="M0 500v300h200v200h300v-200h200v-300h-200v-200h-300v200h-200z" />
<glyph unicode="," horiz-adv-x="400" d="M0 -200v500h300v-500h-300z" />
<glyph unicode="-" horiz-adv-x="700" d="M0 500v300h600v-300h-600z" />
<glyph unicode="." horiz-adv-x="400" d="M0 0v300h300v-300h-300z" />
<glyph unicode="/" d="M-312 0l1300 1300h424l-1300 -1300h-424z" />
<glyph unicode="0" horiz-adv-x="1400" d="M0 650q0 269 190.5 459.5t459.5 190.5t459.5 -190.5t190.5 -459.5t-190.5 -459.5t-459.5 -190.5t-459.5 190.5t-190.5 459.5zM300 650q0 -145 102.5 -247.5t247.5 -102.5t247.5 102.5t102.5 247.5t-102.5 247.5t-247.5 102.5t-247.5 -102.5t-102.5 -247.5z" />
<glyph unicode="1" horiz-adv-x="500" d="M0 1000v300h400v-1300h-300v1000h-100z" />
<glyph unicode="2" d="M0 800v500h700q166 0 283 -117t117 -283t-117 -283t-283 -117h-100q-41 0 -70.5 -29.5t-29.5 -70.5t29.5 -70.5t70.5 -29.5h500v-300h-500q-166 0 -283 117t-117 283t117 283t283 117h100q41 0 70.5 29.5t29.5 70.5t-29.5 70.5t-70.5 29.5h-400v-200h-300z" />
<glyph unicode="3" horiz-adv-x="1100" d="M0 800v500h600q166 0 283 -117t117 -283q0 -143 -87 -250q87 -107 87 -250q0 -166 -117 -283t-283 -117h-500v300h500q41 0 70.5 29.5t29.5 70.5t-29.5 70.5t-70.5 29.5h-200v300h200q41 0 70.5 29.5t29.5 70.5t-29.5 70.5t-70.5 29.5h-300v-200h-300z" />
<glyph unicode="4" d="M0 1000v300h400v-600h300v300h-100v300h400v-600h100v-300h-100v-300l-300 -300v600h-600v600h-100z" />
<glyph unicode="5" d="M0 0v300h500q41 0 70.5 29.5t29.5 70.5t-29.5 70.5t-70.5 29.5h-500v800h1100v-500h-300v200h-500v-200h200q166 0 283 -117t117 -283t-117 -283t-283 -117h-500z" />
<glyph unicode="6" d="M0 650q0 269 190.5 459.5t459.5 190.5h450v-400h-300v100h-150q-145 0 -247 -102q-45 -45 -70 -98h367q166 0 283 -117t117 -283t-117 -283t-283 -117h-50q-269 0 -459.5 190.5t-190.5 459.5zM333 500q25 -53 70 -97q102 -103 247 -103h50q41 0 70.5 29.5t29.5 70.5 t-29.5 70.5t-70.5 29.5h-367z" />
<glyph unicode="7" d="M-312 0l1000 1000h-388v-200h-300v500h1412l-1300 -1300h-424z" />
<glyph unicode="8" horiz-adv-x="1100" d="M0 400q0 143 87 250q-87 107 -87 250q0 166 117 283t283 117h200q166 0 283 -117t117 -283q0 -143 -87 -250q87 -107 87 -250q0 -166 -117 -283t-283 -117h-200q-166 0 -283 117t-117 283zM300 400q0 -41 29.5 -70.5t70.5 -29.5h200q41 0 70.5 29.5t29.5 70.5t-29.5 70.5 t-70.5 29.5h-200q-41 0 -70.5 -29.5t-29.5 -70.5zM300 900q0 -41 29.5 -70.5t70.5 -29.5h200q41 0 70.5 29.5t29.5 70.5t-29.5 70.5t-70.5 29.5h-200q-41 0 -70.5 -29.5t-29.5 -70.5z" />
<glyph unicode="9" d="M0 0v400h300v-100h150q145 0 248 103q44 44 69 97h-367q-166 0 -283 117t-117 283t117 283t283 117h50q269 0 459.5 -190.5t190.5 -459.5t-190.5 -459.5t-459.5 -190.5h-450zM300 900q0 -41 29.5 -70.5t70.5 -29.5h367q-25 53 -69 98q-103 102 -248 102h-50 q-41 0 -70.5 -29.5t-29.5 -70.5z" />
<glyph unicode=":" horiz-adv-x="400" d="M0 0v300h300v-300h-300zM0 600v300h300v-300h-300z" />
<glyph unicode=";" horiz-adv-x="400" d="M0 -200v500h300v-500h-300zM0 600v300h300v-300h-300z" />
<glyph unicode="&#x3c;" horiz-adv-x="800" d="M0 650q0 269 190.5 459.5t459.5 190.5h50v-300h-50q-145 0 -247.5 -102.5t-102.5 -247.5t102.5 -247.5t247.5 -102.5h50v-300h-50q-269 0 -459.5 190.5t-190.5 459.5z" />
<glyph unicode="=" horiz-adv-x="800" d="M0 300v300h700v-300h-700zM0 700v300h700v-300h-700z" />
<glyph unicode="&#x3e;" horiz-adv-x="800" d="M0 0v300h50q145 0 247.5 102.5t102.5 247.5t-102.5 247.5t-247.5 102.5h-50v300h50q269 0 459.5 -190.5t190.5 -459.5t-190.5 -459.5t-459.5 -190.5h-50z" />
<glyph unicode="?" d="M0 900v400h700q166 0 283 -117t117 -283t-117 -283t-283 -117h-300v-100h-300v400h600q41 0 70.5 29.5t29.5 70.5t-29.5 70.5t-70.5 29.5h-400v-100h-300zM100 0v300h300v-300h-300z" />
<glyph unicode="@" horiz-adv-x="1400" d="M0 650q0 269 190.5 459.5t459.5 190.5t459.5 -190.5t190.5 -459.5t-190.5 -459.5t-459.5 -190.5t-459.5 190.5t-190.5 459.5zM300 650q0 -145 102.5 -247.5t247.5 -102.5t247.5 102.5t102.5 247.5t-102.5 247.5t-247.5 102.5t-247.5 -102.5t-102.5 -247.5zM500 650 q0 62 44 106t106 44t106 -44t44 -106t-44 -106t-106 -44t-106 44t-44 106z" />
<glyph unicode="A" horiz-adv-x="1300" d="M-200 0l800 1401l800 -1401h-1000v300h483l-283 501l-453 -801h-347z" />
<glyph unicode="B" d="M0 1000v300h700q166 0 283 -117t117 -283q0 -143 -87 -250q87 -107 87 -250q0 -166 -117 -283t-283 -117h-100l-200 200v-200h-300v1000h-100zM400 300h300q41 0 70.5 29.5t29.5 70.5t-29.5 70.5t-70.5 29.5h-300v-200zM400 800h300q41 0 70.5 29.5t29.5 70.5t-29.5 70.5 t-70.5 29.5h-300v-200z" />
<glyph unicode="C" d="M0 650q0 269 190.5 459.5t459.5 190.5h450v-500h-300v200h-150q-145 0 -247.5 -102.5t-102.5 -247.5t102.5 -247.5t247.5 -102.5h250v-300h-250q-269 0 -459.5 190.5t-190.5 459.5z" />
<glyph unicode="D" horiz-adv-x="1300" d="M0 1000v300h550q269 0 459.5 -190.5t190.5 -459.5t-190.5 -459.5t-459.5 -190.5h-50v300h50q145 0 247.5 102.5t102.5 247.5t-102.5 247.5t-247.5 102.5h-150v-1200l-300 300v900h-100z" />
<glyph unicode="E" d="M0 1000v300h1100v-300h-700v-700h400v100h300v-400h-1000v1000h-100zM500 500v300h500l-300 -300h-200z" />
<glyph unicode="F" d="M0 1000v300h1100v-500h-300v200h-400v-200h300v-300h-300v-700l-300 300v900h-100z" />
<glyph unicode="G" d="M0 650q0 269 190.5 459.5t459.5 190.5h450v-400h-300v100h-150q-145 0 -247.5 -102.5t-102.5 -247.5q0 -68 23 -127l277 277h500v-800h-450q-269 0 -459.5 190.5t-190.5 459.5zM333 500q25 -53 70 -97q102 -103 247 -103h150v200h-467z" />
<glyph unicode="H" d="M0 1000v300h400v-500h400v200h-100v300h400v-1300h-300v700l-200 -200h-200v-700l-300 300v900h-100z" />
<glyph unicode="I" horiz-adv-x="500" d="M0 1000v300h400v-1300h-300v1000h-100z" />
<glyph unicode="J" horiz-adv-x="1100" d="M0 500h300q0 -83 58.5 -141.5t141.5 -58.5t141.5 58.5t58.5 141.5v500h-100v300h400v-800q0 -207 -146.5 -353.5t-353.5 -146.5t-353.5 146.5t-146.5 353.5z" />
<glyph unicode="K" d="M0 1000v300h400v-587l700 700v-426l-337 -337l337 -337v-426l-700 700v-587h-300v1000h-100z" />
<glyph unicode="L" horiz-adv-x="1100" d="M0 1000v300h400v-1000h300v100h300v-400h-900v1000h-100z" />
<glyph unicode="M" horiz-adv-x="1300" d="M0 0v1313l600 -600l600 600v-1313h-300v587l-300 -300l-300 300v-587h-300z" />
<glyph unicode="N" d="M0 0v1413l800 -800v687h300v-1413l-800 800v-687h-300z" />
<glyph unicode="O" horiz-adv-x="1400" d="M0 650q0 269 190.5 459.5t459.5 190.5t459.5 -190.5t190.5 -459.5t-190.5 -459.5t-459.5 -190.5t-459.5 190.5t-190.5 459.5zM300 650q0 -145 102.5 -247.5t247.5 -102.5t247.5 102.5t102.5 247.5t-102.5 247.5t-247.5 102.5t-247.5 -102.5t-102.5 -247.5z" />
<glyph unicode="P" d="M0 1000v300h700q166 0 283 -117t117 -283t-117 -283t-283 -117h-100l-200 200v-700h-300v1000h-100zM400 800h300q41 0 70.5 29.5t29.5 70.5t-29.5 70.5t-70.5 29.5h-300v-200z" />
<glyph unicode="Q" horiz-adv-x="1400" d="M0 650q0 269 190.5 459.5t459.5 190.5t459.5 -190.5t190.5 -459.5q0 -205 -110 -364l436 -436h-426l-232 232q-142 -82 -318 -82q-269 0 -459.5 190.5t-190.5 459.5zM300 650q0 -145 102.5 -247.5t247.5 -102.5q47 0 89 11l-339 339h426l144 -144q30 66 30 144 q0 145 -102.5 247.5t-247.5 102.5t-247.5 -102.5t-102.5 -247.5z" />
<glyph unicode="R" d="M0 1000v300h700q166 0 283 -117t117 -283t-117 -283q-76 -76 -172 -102l515 -515h-426l-500 500v-500h-300v1000h-100zM400 800h300q41 0 70.5 29.5t29.5 70.5t-29.5 70.5t-70.5 29.5h-300v-200z" />
<glyph unicode="S" d="M0 0v300h500q41 0 70.5 29.5t29.5 70.5t-29.5 70.5t-70.5 29.5h-100q-166 0 -283 117t-117 283t117 283t283 117h700v-500h-300v200h-400q-41 0 -70.5 -29.5t-29.5 -70.5t29.5 -70.5t70.5 -29.5h100q166 0 283 -117t117 -283t-117 -283t-283 -117h-500z" />
<glyph unicode="T" horiz-adv-x="1000" d="M0 1000v300h900v-300h-300v-1200l-300 300v900h-300z" />
<glyph unicode="U" d="M0 1000v300h400v-800q0 -83 58.5 -141.5t141.5 -58.5t141.5 58.5t58.5 141.5v500h-100v300h400v-800q0 -207 -146.5 -353.5t-353.5 -146.5t-353.5 146.5t-146.5 353.5v500h-100z" />
<glyph unicode="V" horiz-adv-x="1300" d="M-200 1299h347l453 -801l284 502h-84v300h358v-1h242l-800 -1401z" />
<glyph unicode="W" horiz-adv-x="1300" d="M0 -13v1313h300v-587l300 300l300 -300v587h300v-1313l-600 600z" />
<glyph unicode="X" d="M0 -113v426l337 337l-337 337v426l550 -550l550 550v-426l-337 -337l337 -337v-426l-550 550z" />
<glyph unicode="Y" d="M0 987v426l550 -550l550 550v-426l-400 -400v-787l-300 300v487z" />
<glyph unicode="Z" d="M-312 0l1000 1000h-388v-200h-300v500h1412l-1000 -1000h388v200h300v-500h-1412z" />
<glyph unicode="[" horiz-adv-x="700" d="M0 0v1300h600v-300h-300v-700h300v-300h-600z" />
<glyph unicode="\" d="M-312 1300h424l1300 -1300h-424z" />
<glyph unicode="]" horiz-adv-x="700" d="M0 0v300h300v700h-300v300h600v-1300h-600z" />
<glyph unicode="^" horiz-adv-x="400" d="M0 800v500h300v-500h-300z" />
<glyph unicode="_" d="M0 0v300h1100v-300h-1100z" />
<glyph unicode="`" horiz-adv-x="400" d="M0 800v500h300v-500h-300z" />
<glyph unicode="a" horiz-adv-x="1300" d="M-200 0l800 1401l800 -1401h-1000v300h483l-283 501l-453 -801h-347z" />
<glyph unicode="b" d="M0 1000v300h700q166 0 283 -117t117 -283q0 -143 -87 -250q87 -107 87 -250q0 -166 -117 -283t-283 -117h-100l-200 200v-200h-300v1000h-100zM400 300h300q41 0 70.5 29.5t29.5 70.5t-29.5 70.5t-70.5 29.5h-300v-200zM400 800h300q41 0 70.5 29.5t29.5 70.5t-29.5 70.5 t-70.5 29.5h-300v-200z" />
<glyph unicode="c" d="M0 650q0 269 190.5 459.5t459.5 190.5h450v-500h-300v200h-150q-145 0 -247.5 -102.5t-102.5 -247.5t102.5 -247.5t247.5 -102.5h250v-300h-250q-269 0 -459.5 190.5t-190.5 459.5z" />
<glyph unicode="d" horiz-adv-x="1300" d="M0 1000v300h550q269 0 459.5 -190.5t190.5 -459.5t-190.5 -459.5t-459.5 -190.5h-50v300h50q145 0 247.5 102.5t102.5 247.5t-102.5 247.5t-247.5 102.5h-150v-1200l-300 300v900h-100z" />
<glyph unicode="e" d="M0 1000v300h1100v-300h-700v-700h400v100h300v-400h-1000v1000h-100zM500 500v300h500l-300 -300h-200z" />
<glyph unicode="f" d="M0 1000v300h1100v-500h-300v200h-400v-200h300v-300h-300v-700l-300 300v900h-100z" />
<glyph unicode="g" d="M0 650q0 269 190.5 459.5t459.5 190.5h450v-400h-300v100h-150q-145 0 -247.5 -102.5t-102.5 -247.5q0 -68 23 -127l277 277h500v-800h-450q-269 0 -459.5 190.5t-190.5 459.5zM333 500q25 -53 70 -97q102 -103 247 -103h150v200h-467z" />
<glyph unicode="h" d="M0 1000v300h400v-500h400v200h-100v300h400v-1300h-300v700l-200 -200h-200v-700l-300 300v900h-100z" />
<glyph unicode="i" horiz-adv-x="500" d="M0 1000v300h400v-1300h-300v1000h-100z" />
<glyph unicode="j" horiz-adv-x="1100" d="M0 500h300q0 -83 58.5 -141.5t141.5 -58.5t141.5 58.5t58.5 141.5v500h-100v300h400v-800q0 -207 -146.5 -353.5t-353.5 -146.5t-353.5 146.5t-146.5 353.5z" />
<glyph unicode="k" d="M0 1000v300h400v-587l700 700v-426l-337 -337l337 -337v-426l-700 700v-587h-300v1000h-100z" />
<glyph unicode="l" horiz-adv-x="1100" d="M0 1000v300h400v-1000h300v100h300v-400h-900v1000h-100z" />
<glyph unicode="m" horiz-adv-x="1300" d="M0 0v1313l600 -600l600 600v-1313h-300v587l-300 -300l-300 300v-587h-300z" />
<glyph unicode="n" d="M0 0v1413l800 -800v687h300v-1413l-800 800v-687h-300z" />
<glyph unicode="o" horiz-adv-x="1400" d="M0 650q0 269 190.5 459.5t459.5 190.5t459.5 -190.5t190.5 -459.5t-190.5 -459.5t-459.5 -190.5t-459.5 190.5t-190.5 459.5zM300 650q0 -145 102.5 -247.5t247.5 -102.5t247.5 102.5t102.5 247.5t-102.5 247.5t-247.5 102.5t-247.5 -102.5t-102.5 -247.5z" />
<glyph unicode="p" d="M0 1000v300h700q166 0 283 -117t117 -283t-117 -283t-283 -117h-100l-200 200v-700h-300v1000h-100zM400 800h300q41 0 70.5 29.5t29.5 70.5t-29.5 70.5t-70.5 29.5h-300v-200z" />
<glyph unicode="q" horiz-adv-x="1400" d="M0 650q0 269 190.5 459.5t459.5 190.5t459.5 -190.5t190.5 -459.5q0 -205 -110 -364l436 -436h-426l-232 232q-142 -82 -318 -82q-269 0 -459.5 190.5t-190.5 459.5zM300 650q0 -145 102.5 -247.5t247.5 -102.5q47 0 89 11l-339 339h426l144 -144q30 66 30 144 q0 145 -102.5 247.5t-247.5 102.5t-247.5 -102.5t-102.5 -247.5z" />
<glyph unicode="r" d="M0 1000v300h700q166 0 283 -117t117 -283t-117 -283q-76 -76 -172 -102l515 -515h-426l-500 500v-500h-300v1000h-100zM400 800h300q41 0 70.5 29.5t29.5 70.5t-29.5 70.5t-70.5 29.5h-300v-200z" />
<glyph unicode="s" d="M0 0v300h500q41 0 70.5 29.5t29.5 70.5t-29.5 70.5t-70.5 29.5h-100q-166 0 -283 117t-117 283t117 283t283 117h700v-500h-300v200h-400q-41 0 -70.5 -29.5t-29.5 -70.5t29.5 -70.5t70.5 -29.5h100q166 0 283 -117t117 -283t-117 -283t-283 -117h-500z" />
<glyph unicode="t" horiz-adv-x="1000" d="M0 1000v300h900v-300h-300v-1200l-300 300v900h-300z" />
<glyph unicode="u" d="M0 1000v300h400v-800q0 -83 58.5 -141.5t141.5 -58.5t141.5 58.5t58.5 141.5v500h-100v300h400v-800q0 -207 -146.5 -353.5t-353.5 -146.5t-353.5 146.5t-146.5 353.5v500h-100z" />
<glyph unicode="v" horiz-adv-x="1300" d="M-200 1299h347l453 -801l284 502h-84v300h358v-1h242l-800 -1401z" />
<glyph unicode="w" horiz-adv-x="1300" d="M0 -13v1313h300v-587l300 300l300 -300v587h300v-1313l-600 600z" />
<glyph unicode="x" d="M0 -113v426l337 337l-337 337v426l550 -550l550 550v-426l-337 -337l337 -337v-426l-550 550z" />
<glyph unicode="y" d="M0 987v426l550 -550l550 550v-426l-400 -400v-787l-300 300v487z" />
<glyph unicode="z" d="M-312 0l1000 1000h-388v-200h-300v500h1412l-1000 -1000h388v200h300v-500h-1412z" />
<glyph unicode="{" horiz-adv-x="800" d="M0 650q0 269 190.5 459.5t459.5 190.5h50v-300h-50q-145 0 -247.5 -102.5t-102.5 -247.5t102.5 -247.5t247.5 -102.5h50v-300h-50q-269 0 -459.5 190.5t-190.5 459.5z" />
<glyph unicode="|" horiz-adv-x="400" d="M0 0v1300h300v-1300h-300z" />
<glyph unicode="}" horiz-adv-x="800" d="M0 0v300h50q145 0 247.5 102.5t102.5 247.5t-102.5 247.5t-247.5 102.5h-50v300h50q269 0 459.5 -190.5t190.5 -459.5t-190.5 -459.5t-459.5 -190.5h-50z" />
<glyph unicode="~" horiz-adv-x="700" d="M0 500v300h600v-300h-600z" />
<glyph unicode="&#xad;" horiz-adv-x="700" d="M0 500v300h600v-300h-600z" />
<glyph unicode="&#x2000;" horiz-adv-x="750" />
<glyph unicode="&#x2001;" horiz-adv-x="1500" />
<glyph unicode="&#x2002;" horiz-adv-x="750" />
<glyph unicode="&#x2003;" horiz-adv-x="1500" />
<glyph unicode="&#x2004;" horiz-adv-x="500" />
<glyph unicode="&#x2005;" horiz-adv-x="375" />
<glyph unicode="&#x2006;" horiz-adv-x="250" />
<glyph unicode="&#x2007;" horiz-adv-x="250" />
<glyph unicode="&#x2008;" horiz-adv-x="187" />
<glyph unicode="&#x2009;" horiz-adv-x="300" />
<glyph unicode="&#x200a;" horiz-adv-x="83" />
<glyph unicode="&#x2010;" horiz-adv-x="700" d="M0 500v300h600v-300h-600z" />
<glyph unicode="&#x2011;" horiz-adv-x="700" d="M0 500v300h600v-300h-600z" />
<glyph unicode="&#x2012;" horiz-adv-x="700" d="M0 500v300h600v-300h-600z" />
<glyph unicode="&#x2013;" horiz-adv-x="1124" d="M0 500v300h1024v-300h-1024z" />
<glyph unicode="&#x2014;" horiz-adv-x="2148" d="M0 500v300h2048v-300h-2048z" />
<glyph unicode="&#x202f;" horiz-adv-x="300" />
<glyph unicode="&#x205f;" horiz-adv-x="375" />
<glyph unicode="&#x25fc;" horiz-adv-x="1415" d="M0 0v1415h1415v-1415h-1415z" />
</font>
</defs>
</svg>
